Joker (2019).SD.H264.ita.eng.Ac3-5.1.sub.ita.eng-MIRCrew

seeders: 132
leechers: 23
updated:
Added by robbyrs in Other
Torrent reliable.


ᕦ( ▨̅ ͜▨̅ )ᕥ SPECIAL DEAL - OFFER ᕦ( ▨̅ ͜▨̅ )ᕥ
strongly advises you to use Nord while downloading torrents.
Nord is the safest on the market, and the fastest as well.
No IP Log is saved using Nord, avoid other providers and choose the safest one.
Click here and buy Nord it's on rebates today!
We were able to verify your IP: 35.175.113.29, country: United States and you are near by: Ashburn.
If we can do that, others can too, protect your privacy with Nord.
is trying the best for you!
ᕦ( ▨̅ ͜▨̅ )ᕥ SPECIAL DEAL - OFFER ᕦ( ▨̅ ͜▨̅ )ᕥ


Description

Joker (2019).SD.H264.ita.eng.Ac3-5.1.sub.ita.eng-MIRCrew

 


NO FOUND ONLY ORIGINAL RELEASE

My release is always in double track audio italian and Original audio
for select it use VLC or dvd player home
not use wmp 

Joker (2019)


 

 

 

 

Lingua originale	inglese
Paese di produzione	Stati Uniti d'America
Anno	2019
Durata	123 min
Rapporto	1,85:1
Genere	drammatico, poliziesco, thriller
Regia	Todd Phillips
Soggetto	Bob Kane, Bill Finger, Jerry Robinson
Sceneggiatura	Todd Phillips, Scott Silver

 

 Joaquin Phoenix: Arthur Fleck / Joker
 Robert De Niro: Murray Franklin
 Zazie Beetz: Sophie Dumond
 Frances Conroy: Penny Fleck
 Brett Cullen: Thomas Wayne
 Glenn Fleshler: Randall
 Bill Camp: ispettore Garrity
 Shea Whigham: ispettore Burke
 Marc Maron: Gene Ufland
 Douglas Hodge: Alfred Pennyworth
 Leigh Gill: Gary
 Josh Pais: Hoyt Vaughn
 Brian Tyree Henry: Carl
 Dante Pereira-Olson: Bruce Wayne

 

Arthur Fleck è un individuo profondamente alienato che, nella Gotham City del 1981 sempre più preda del degrado e della disuguaglianza sociale, vive con l'anziana madre Penny in un appartamento dei bassifondi. 

 

In Gotham City, mentally troubled comedian Arthur Fleck is disregarded and mistreated by society. He then embarks on a downward spiral of revolution and bloody crime. This path brings him face-to-face with his alter-ego: the Joker. 

 

 
 
 
 

General

Complete name : Joker (2019).SD.H264.ita.eng.sub.ita.eng-MIRCrew\Joker (2019).SD.H264.ita.eng.sub.ita.eng-MIRCrew.mkv
Format : Matroska
Format version : Version 2
File size : 1.84 GiB
Duration : 2h 2mn
Overall bit rate : 2 152 Kbps
Movie name : robbyrs
Encoded date : UTC 2019-12-19 10:57:16
Writing application : mkvmerge v5.8.0 ('No Sleep / Pillow') built on Sep 2 2012 15:37:04
Writing library : Lavf54.63.100
COMMENT : robbyrs
COPYRIGHT : robbyrs

Video
ID : 1
Format  : AVC
Format/Info : Advanced Video Codec
Format profile : [email protected] 
Format settings, CABAC : Yes
Format settings, ReFrames : 2 frames
Codec ID : V_MPEG4/ISO/AVC
Duration : 2h 2mn
Bit rate : 1 213 Kbps
Nominal bit rate : 1 300 Kbps
Width : 720 pixels
Height : 384 pixels
Display aspect ratio : 16:9
Frame rate mode : Variable
Frame rate : 23.976 fps
Color space : YUV
Chroma subsampling : 4:2:0
Bit depth : 8 bits
Scan type : Progressive
Bits/(Pixel*Frame) : 0.183
Stream size : 1.03 GiB (56%)
Title : robbyrs
Writing library : x264 core 130 r2273
Encoding settings : cabac=1 / ref=2 / deblock=1:0:0 / analyse=0x1:0x131 / me=hex / subme=7 / psy=1 / psy_rd=1.00:0.00 / mixed_ref=0 / me_range=16 / chroma_me=1 / trellis=1 / 8x8dct=0 / cqm=0 / deadzone=21,11 / fast_pskip=1 / chroma_qp_offset=-2 / threads=9 / lookahead_threads=1 / sliced_threads=0 / nr=0 / decimate=1 / interlaced=0 / bluray_compat=0 / constrained_intra=0 / bframes=3 / b_pyramid=0 / b_adapt=1 / b_bias=0 / direct=3 / weightb=1 / open_gop=0 / weightp=2 / keyint=230 / keyint_min=23 / scenecut=40 / intra_refresh=0 / rc_lookahead=40 / rc=abr / mbtree=1 / bitrate=1300 / ratetol=1.0 / qcomp=0.60 / qpmin=10 / qpmax=69 / qpstep=4 / vbv_maxrate=24000 / vbv_bufsize=24000 / nal_hrd=none / ip_ratio=1.40 / aq=1:1.00
Language : Italian
Default : Yes
Forced : No
DURATION : 02:01:49.094000000
NUMBER_OF_FRAMES : 175243
NUMBER_OF_BYTES : 7621102878
_STATISTICS_WRITING_APP : mkvmerge v40.0.0 ('Old Town Road + Pony') 64-bit
_STATISTICS_WRITING_DATE_UTC : 2019-12-19 10:57:16
_STATISTICS_TAGS : BPS DURATION NUMBER_OF_FRAMES NUMBER_OF_BYTES

Audio #1
ID : 2
Format : AC-3
Format/Info : Audio Coding 3
Mode extension : CM (complete main)
Codec ID : A_AC3
Duration : 2h 2mn
Bit rate mode : Constant
Bit rate : 448 Kbps
Channel(s) : 6 channels
Channel positions : Front: L C R, Side: L R, LFE
Sampling rate : 48.0 KHz
Bit depth : 16 bits
Compression mode : Lossy
Delay relative to video : -42ms
Stream size : 391 MiB (21%)
Title : Ita Ac3 5.1
Language : Italian
Default : Yes
Forced : No
DURATION : 02:01:49.120000000
NUMBER_OF_FRAMES : 228410
NUMBER_OF_BYTES : 584729600
_STATISTICS_WRITING_APP : mkvmerge v40.0.0 ('Old Town Road + Pony') 64-bit
_STATISTICS_WRITING_DATE_UTC : 2019-12-19 10:57:16
_STATISTICS_TAGS  : BPS DURATION NUMBER_OF_FRAMES NUMBER_OF_BYTES

Audio #2
ID : 3
Format : AC-3
Format/Info : Audio Coding 3
Mode extension : CM (complete main)
Codec ID : A_AC3
Duration : 2h 2mn
Bit rate mode : Constant
Bit rate : 448 Kbps
Channel(s) : 2 channels
Channel positions : Front: L R
Sampling rate : 48.0 KHz
Bit depth : 16 bits
Compression mode : Lossy
Delay relative to video : -5ms
Stream size : 391 MiB (21%)
Title : Eng Ac3 5.1
Language : English
Default : No
Forced : No

Menu
00:00:00.000 : :Chapter 01
00:10:28.795 : :Chapter 02
00:21:01.302 : :Chapter 03
00:28:44.973 : :Chapter 04
00:38:14.501 : :Chapter 05
00:46:21.570 : :Chapter 06
00:56:19.293 : :Chapter 07
01:04:41.169 : :Chapter 08
01:15:41.746 : :Chapter 09
01:26:16.046 : :Chapter 10
01:37:02.608 : :Chapter 11
01:45:50.386 : :Chapter 12
01:55:44.646 : :Chapter 13








Sharing Widget


Download torrent
Size: 1.8 GB
seeders:132
leechers:23
Joker (2019).SD.H264.ita.eng.Ac3-5.1.sub.ita.eng-MIRCrew - (1932735283 Bytes)



To share this torrent use the code below and insert it into comments, status messages, forum posts or your signature.

Torrent: Joker (2019).SD.H264.ita.eng.Ac3-5.1.sub.ita.eng-MIRCrew

Trackers

tracker name
udp://tracker.coppersurfer.tk:6969/announce
udp://tracker.torrent.eu.org:451/announce
udp://tracker.leechers-paradise.org:6969/announce
udp://tracker.opentrackr.org:1337/announce
udp://9.rarbg.to:2730/announce
udp://9.rarbg.com:2710/announce
udp://9.rarbg.me:2780/announce
udp://tracker.coppersurfer.tk:80/announce
udp://tracker.pirateparty.gr:6969/announce
udp://tracker.eddie4.nl:6969/announce
udp://shadowshq.yi.org:6969/announce
udp://shadowshq.eddie4.nl:6969/announce
udp://inferno.demonoid.pw:3391/announce
udp://eddie4.nl:6969/announce
udp://tracker.zer0day.to:1337/announce
udp://tracker.leechers-paradise.org:6969/announce
udp://coppersurfer.tk:6969/announce
µTorrent compatible trackers list

Locations

name
KickassTorrents
Torrent hash: 29164F2669D638F3F24929EECA66584A2ED1B37C

ᕦ( ▨̅ ͜▨̅ )ᕥ SPECIAL DEAL - OFFER ᕦ( ▨̅ ͜▨̅ )ᕥ
strongly advises you to use Nord while downloading torrents.
Nord is the safest on the market, and the fastest as well.
No IP Log is saved using Nord, avoid other providers and choose the safest one.
Click here and buy Nord it's on rebates today!
We were able to verify your IP: 35.175.113.29, country: United States and you are near by: Ashburn.
If we can do that, others can too, protect your privacy with Nord.
is trying the best for you!
ᕦ( ▨̅ ͜▨̅ )ᕥ SPECIAL DEAL - OFFER ᕦ( ▨̅ ͜▨̅ )ᕥ

All Comments

*comments box temporarily disabled*
Report a bug